datalinkek
Üdvözöllek az oldalon!

Az oldal teljes tartalmának megtekintéséhez regisztrációra van szükség.

Az oldalon minden teljesen ingyenes

A megölhetetlen 2016,HDRip.HUN

Go down

A megölhetetlen 2016,HDRip.HUN

Témanyitás by Admin on Kedd Márc. 27, 2018 1:17 pm

[You must be registered and logged in to see this image.]

[You must be registered and logged in to see this image.]
A megölhetetlen /Don't Kill It/
amerikai fantasy, 93 perc, 2016
[You must be registered and logged in to see this image.]
rendező:
Mike Mendez
[You must be registered and logged in to see this image.]
Dolph Lundgren
Kristina Klebe
[You must be registered and logged in to see this image.]
Format : MPEG-4
Format profile : Base Media
Codec ID : isom (isom/iso2/avc1/mp41)
File size : 795 MiB
Duration : 1 h 23 min
Overall bit rate : 1 332 kb/s
Writing application : Lavf57.29.101

Video
ID : 1
Format : AVC
Format/Info : Advanced Video Codec
Format profile : High@L3.1
Format settings, CABAC : Yes
Format settings, ReFrames : 4 frames
Codec ID : avc1
Codec ID/Info : Advanced Video Coding
Duration : 1 h 23 min
Bit rate : 1 199 kb/s
Nominal bit rate : 1 300 kb/s
Width : 1 280 pixels
Height : 536 pixels
Display aspect ratio : 2.40:1
Frame rate mode : Constant
Frame rate : 23.976 (24000/1001) FPS
Color space : YUV
Chroma subsampling : 4:2:0
Bit depth : 8 bits
Scan type : Progressive
Bits/(Pixel*Frame) : 0.073
Stream size : 715 MiB (90%)
Writing library : x264 core 144 r2525 40bb568

Language : hun

Audio
ID : 2
Format : AAC
Format/Info : Advanced Audio Codec
Format profile : LC
Codec ID : 40
Duration : 1 h 23 min
Bit rate mode : Constant
Bit rate : 128 kb/s
Channel(s) : 2 channels
Channel positions : Front: L R
Sampling rate : 48.0 kHz
Frame rate : 46.875 FPS (1024 spf)
Compression mode : Lossy
Stream size : 76.3 MiB (10%)
Language : Hungarian
Default : Yes
Alternate group : 1

[You must be registered and logged in to see this image.]

Jebediah Huntley foglalkozása démonvadász. Most egy kis Mississipi-menti városkába szólítja a kötelesség, ahol egy FBI ügynökkel karöltve egy természetfeletti entitásra kell vadásznia.
[You must be registered and logged in to see this image.]



Kód:
https://data.hu/get/11137965/A_megolhetetlen_2016HDRip.HUN.z01?pid=3213894265
https://data.hu/get/11137966/A_megolhetetlen_2016HDRip.HUN.z02?pid=3213894265
https://data.hu/get/11137967/A_megolhetetlen_2016HDRip.HUN.z03?pid=3213894265
https://data.hu/get/11137968/A_megolhetetlen_2016HDRip.HUN.z04?pid=3213894265
https://data.hu/get/11137969/A_megolhetetlen_2016HDRip.HUN.z05?pid=3213894265
https://data.hu/get/11137970/A_megolhetetlen_2016HDRip.HUN.z06?pid=3213894265
https://data.hu/get/11137971/A_megolhetetlen_2016HDRip.HUN.z07?pid=3213894265
https://data.hu/get/11137972/A_megolhetetlen_2016HDRip.HUN.z08?pid=3213894265
https://data.hu/get/11137973/A_megolhetetlen_2016HDRip.HUN.zip?pid=3213894265

avatar
Admin
Admin

Hozzászólások száma : 228
Join date : 2016. May. 17.

http://datalinkek.forumotion.com

Vissza az elejére Go down

Vissza az elejére

- Similar topics

 
Permissions in this forum:
Nem válaszolhatsz egy témára ebben a fórumban.