datalinkek
Üdvözöllek az oldalon!

Az oldal teljes tartalmának megtekintéséhez regisztrációra van szükség.

Az oldalon minden teljesen ingyenes

Kísértettörténet 2017.BDRip.HUN

Go down

Kísértettörténet 2017.BDRip.HUN

Témanyitás by Admin on Kedd Márc. 27, 2018 1:08 pm

[You must be registered and logged in to see this image.]

[You must be registered and logged in to see this image.]
Kísértettörténet
/Ghost Story/
Év:
2017
Játékidő:
92 perc
Kategória:
Dráma, Fantasy, Romantikus
[You must be registered and logged in to see this image.]

Író:
David Lowery
Rendező:
David Lowery
[You must be registered and logged in to see this image.]
Casey Affleck (C), Liz Franke (Linda (as Liz Cardenas Franke)), Liz Franke (Linda), Grover Coulson (Man in Wheelchair), Sonia Acevedo (Maria), Rooney Mara (M), Barlow Jacobs (Gentleman Caller), Dagger Salazar (Mover), Richard Krause (Mover), Kesha (Spirit Girl (as Kesha Sebert)), Daniel Escudero (Making Out), Kenneisha Thompson (Doctor), Kimberly Fiddes (Making Out), Carlos Bermudez (Carlos), McColm Cephas Jr. (Little Boy), Yasmina Gutierrez
[You must be registered and logged in to see this image.]
Format : MPEG-4
Format profile : Base Media
Codec ID : isom (isom/iso2/avc1/mp41)
File size : 834 MiB
Duration : 1 h 32 min
Overall bit rate : 1 265 kb/s
Writing application : Lavf57.83.100

Video
ID : 1
Format : AVC
Format/Info : Advanced Video Codec
Format profile : High@L3.1
Format settings, CABAC : Yes
Format settings, ReFrames : 5 frames
Codec ID : avc1
Codec ID/Info : Advanced Video Coding
Duration : 1 h 32 min
Bit rate : 1 152 kb/s
Width : 960 pixels
Height : 720 pixels
Display aspect ratio : 4:3
Frame rate mode : Constant
Frame rate : 23.976 (24000/1001) FPS
Color space : YUV
Chroma subsampling : 4:2:0
Bit depth : 8 bits
Scan type : Progressive
Bits/(Pixel*Frame) : 0.070
Stream size : 747 MiB (90%)
Writing library : x264 core 148 r2643 5c65704
Language : hun
Menus : 3

Audio
ID : 2
Format : AAC
Format/Info : Advanced Audio Codec
Format profile : LC
Codec ID : 40
Duration : 1 h 32 min
Duration_LastFrame : -11 ms
Bit rate mode : Constant
Bit rate : 128 kb/s
Channel(s) : 2 channels
Channel positions : Front: L R
Sampling rate : 48.0 kHz
Frame rate : 46.875 FPS (1024 spf)
Compression mode : Lossy
Stream size : 84.6 MiB (10%)
Language : Hungarian
Default : Yes
Alternate group : 1
Menus : 3
[You must be registered and logged in to see this image.]
Egy közelmúltban elhunyt férfi szelleme visszatér külvárosi otthonába, hogy megpróbáljon kapcsolatba lépni özvegyével. Egy drámai erejű történet a szerelemről, a veszteségről, az örökségről és a lét szörnyűségéről.

[You must be registered and logged in to see this image.]


Kód:
https://data.hu/get/11137978/Kisertettortenet_2017.BDRip.HUN.z01?pid=3213894265
https://data.hu/get/11137979/Kisertettortenet_2017.BDRip.HUN.z02?pid=3213894265
https://data.hu/get/11137980/Kisertettortenet_2017.BDRip.HUN.z03?pid=3213894265
https://data.hu/get/11137981/Kisertettortenet_2017.BDRip.HUN.z04?pid=3213894265
https://data.hu/get/11137982/Kisertettortenet_2017.BDRip.HUN.z05?pid=3213894265
https://data.hu/get/11137983/Kisertettortenet_2017.BDRip.HUN.z06?pid=3213894265
https://data.hu/get/11137984/Kisertettortenet_2017.BDRip.HUN.z07?pid=3213894265
https://data.hu/get/11137985/Kisertettortenet_2017.BDRip.HUN.z08?pid=3213894265
https://data.hu/get/11137986/Kisertettortenet_2017.BDRip.HUN.zip?pid=3213894265


avatar
Admin
Admin

Hozzászólások száma : 228
Join date : 2016. May. 17.

http://datalinkek.forumotion.com

Vissza az elejére Go down

Vissza az elejére

- Similar topics

 
Permissions in this forum:
Nem válaszolhatsz egy témára ebben a fórumban.