datalinkek
Üdvözöllek az oldalon!

Az oldal teljes tartalmának megtekintéséhez regisztrációra van szükség.

Az oldalon minden teljesen ingyenes

Suburbicon Tiszta udvar, rendes ház 2017.BDRip.HUN

Go down

Suburbicon Tiszta udvar, rendes ház 2017.BDRip.HUN

Témanyitás by Admin on Kedd Márc. 27, 2018 1:03 pm

[You must be registered and logged in to see this image.]

[You must be registered and logged in to see this image.]
Suburbicon
magyarul beszélő, amerikai krimi, 105 perc, 2017
[You must be registered and logged in to see this image.]


rendező:
George Clooney
forgatókönyvíró:
George Clooney Ethan Coen Joel Coen Grant Heslov
operatőr:
Robert Elswit
zene:
Alexandre Desplat
producer:
George Clooney Grant Heslov Teddy Schwarzman
vágó:
Stephen Mirrione
[You must be registered and logged in to see this image.]

Gardner
Matt Damon
Margaret
Julianne Moore
Roger
Oscar Isaac
Ira Sloan
Glenn Fleshler
Hightower
Jack Conley
Nicky
Noah Jupe
[You must be registered and logged in to see this image.]
Format : MPEG-4
Format profile : Base Media
Codec ID : isom (isom/iso2/avc1/mp41)
File size : 966 MiB
Duration : 1 h 45 min
Overall bit rate : 1 286 kb/s
Writing application : Lavf57.83.100

Video
ID : 1
Format : AVC
Format/Info : Advanced Video Codec
Format profile : High@L3.1
Format settings, CABAC : Yes
Format settings, ReFrames : 5 frames
Codec ID : avc1
Codec ID/Info : Advanced Video Coding
Duration : 1 h 45 min
Bit rate : 1 152 kb/s
Width : 1 280 pixels
Height : 536 pixels
Display aspect ratio : 2.40:1
Frame rate mode : Constant
Frame rate : 23.976 (24000/1001) FPS
Color space : YUV
Chroma subsampling : 4:2:0
Bit depth : 8 bits
Scan type : Progressive
Bits/(Pixel*Frame) : 0.070
Stream size : 867 MiB (90%)
Writing library : x264 core 148 r2643 5c65704
Language : hun
Menus : 3

Audio
ID : 2
Format : AAC
Format/Info : Advanced Audio Codec
Format profile : LC
Codec ID : 40
Duration : 1 h 44 min
Duration_LastFrame : -11 ms
Bit rate mode : Constant
Bit rate : 129 kb/s
Channel(s) : 2 channels
Channel positions : Front: L R
Sampling rate : 48.0 kHz
Frame rate : 46.875 FPS (1024 spf)
Compression mode : Lossy
Stream size : 96.3 MiB (10%)
Language : Hungarian
Default : Yes
Alternate group : 1
Menus : 3
[You must be registered and logged in to see this image.]
Ápolt gyep, udvarias szomszédok, csendes, békés kertváros - ez Suburbicon, egy amerikai középosztály számára tökéletes hely az 1950-es években. A Lodge család is boldogan él itt, nem is találhatna ideálisabb várost gyermekneveléshez. Csakhogy a békés felszín alatt kiábrándító valóság lapul. Gardner Lodge (Matt Damon) apaként és férjként is olyan helyzetbe kerül, ahol a jól bevált módszerek már nem alkalmazhatók. Márpedig eltökélt célja, hogy megvédi házát, gyermekét és mindent, amit oly gondosan épített évek óta. Akkor is, ha az emberi romlottság legmélyebb bugyraiba kell is leásnia magát érte...

[You must be registered and logged in to see this image.]

Kód:
https://data.hu/get/11137987/Suburbicon_Tiszta_udvar_rendes_haz_2017.BDRip.HUN.z01?pid=3213894265
https://data.hu/get/11137988/Suburbicon_Tiszta_udvar_rendes_haz_2017.BDRip.HUN.z02?pid=3213894265
https://data.hu/get/11137989/Suburbicon_Tiszta_udvar_rendes_haz_2017.BDRip.HUN.z03?pid=3213894265
https://data.hu/get/11137990/Suburbicon_Tiszta_udvar_rendes_haz_2017.BDRip.HUN.z04?pid=3213894265
https://data.hu/get/11137991/Suburbicon_Tiszta_udvar_rendes_haz_2017.BDRip.HUN.z05?pid=3213894265
https://data.hu/get/11137992/Suburbicon_Tiszta_udvar_rendes_haz_2017.BDRip.HUN.z06?pid=3213894265
https://data.hu/get/11137993/Suburbicon_Tiszta_udvar_rendes_haz_2017.BDRip.HUN.z07?pid=3213894265
https://data.hu/get/11137994/Suburbicon_Tiszta_udvar_rendes_haz_2017.BDRip.HUN.z08?pid=3213894265
https://data.hu/get/11137995/Suburbicon_Tiszta_udvar_rendes_haz_2017.BDRip.HUN.z09?pid=3213894265
https://data.hu/get/11137996/Suburbicon_Tiszta_udvar_rendes_haz_2017.BDRip.HUN.z10?pid=3213894265
https://data.hu/get/11137997/Suburbicon_Tiszta_udvar_rendes_haz_2017.BDRip.HUN.zip?pid=3213894265


avatar
Admin
Admin

Hozzászólások száma : 228
Join date : 2016. May. 17.

http://datalinkek.forumotion.com

Vissza az elejére Go down

Vissza az elejére

- Similar topics

 
Permissions in this forum:
Nem válaszolhatsz egy témára ebben a fórumban.