datalinkek
Üdvözöllek az oldalon!

Az oldal teljes tartalmának megtekintéséhez regisztrációra van szükség.

Az oldalon minden teljesen ingyenes

Privát DVD 063

Go down

Privát DVD 063

Témanyitás by bubus66 on Vas. Júl. 23, 2017 1:35 pm

Privát DVD 063 XXX.DVDRip

[You must be registered and logged in to see this image.]
[You must be registered and logged in to see this image.]

General
Complete name : Privát dvd 63.avi
Format : AVI
Format/Info : Audio Video Interleave
File size : 1.37 GiB
Duration : 2 h 7 min
Overall bit rate mode : Variable
Overall bit rate : 1 540 kb/s
Writing application : VirtualDubMod 1.5.4.1 (build 2178/release)
Writing library : VirtualDubMod build 2178/release

Video
ID : 0
Format : MPEG-4 Visual
Format profile : Advanced Simple@L5
Format settings, BVOP : 1
Format settings, QPel : No
Format settings, GMC : No warppoints
Format settings, Matrix : Custom
Codec ID : XVID
Codec ID/Hint : XviD
Duration : 2 h 7 min
Bit rate : 1 367 kb/s
Width : 672 pixels
Height : 384 pixels
Display aspect ratio : 16:9
Frame rate : 25.000 FPS
Color space : YUV
Chroma subsampling : 4:2:0
Bit depth : 8 bits
Scan type : Progressive
Compression mode : Lossy
Bits/(Pixel*Frame) : 0.212
Stream size : 1.21 GiB (89%)
Writing library : XviD 1.2.1 (UTC 2008-12-04)

Audio
ID : 1
Format : MPEG Audio
Format version : Version 1
Format profile : Layer 3
Mode : Joint stereo
Mode extension : MS Stereo
Codec ID : 55
Codec ID/Hint : MP3
Duration : 2 h 7 min
Bit rate mode : Variable
Bit rate : 161 kb/s
Nominal bit rate : 192 kb/s
Channel(s) : 2 channels
Sampling rate : 48.0 kHz
Compression mode : Lossy
Stream size : 146 MiB (10%)
Alignment : Aligned on interleaves
Interleave, duration : 24 ms (0.60 video frame)
Interleave, preload duration : 542 ms
Writing library : LAME3.98r
Encoding settings : -m j -V 4 -q 2 -lowpass 18.6 --abr 192
Language : English

[You must be registered and logged in to see this image.]
Kód:
https://data.hu/get/10643668/Privat_dvd_63.001
https://data.hu/get/10643666/Privat_dvd_63.002
https://data.hu/get/10643665/Privat_dvd_63.003
https://data.hu/get/10643664/Privat_dvd_63.004
https://data.hu/get/10643667/Privat_dvd_63.005
https://data.hu/get/10643669/Privat_dvd_63.006
https://data.hu/get/10643661/Privat_dvd_63.007
https://data.hu/get/10643662/Privat_dvd_63.008
https://data.hu/get/10643663/Privat_dvd_63.crc

[You must be registered and logged in to see this image.]
Kód:
https://data.hu/get/10643660/Privat_dvd_63.zip
avatar
bubus66

Hozzászólások száma : 45
Join date : 2016. Jul. 22.

Vissza az elejére Go down

Vissza az elejére


 
Permissions in this forum:
Nem válaszolhatsz egy témára ebben a fórumban.