datalinkek
Üdvözöllek az oldalon!

Az oldal teljes tartalmának megtekintéséhez regisztrációra van szükség.

Az oldalon minden teljesen ingyenes

A mexikói határ (The Last Ride) 2004 DVDRip

Go down

A mexikói határ (The Last Ride) 2004 DVDRip

Témanyitás by bubus66 on Vas. Aug. 28, 2016 7:22 am

A mexikói határ (The Last Ride) 2004 DVDRip
színes, magyarul beszélő, amerikai akciófilm, 81 perc, 2004 (16)

[You must be registered and logged in to see this image.]
[You must be registered and logged in to see this image.]

Stáb:
rendező: Guy Norman Bee
írta: Rob Cohen, Ron McGee
forgatókönyvíró: Ron McGee
producer: Oscar L. Costo, Bruce Mellon
ügyvezető producer: Angela Mancuso, Rob Cohen
operatőr: Karl Herrmann
zene: Frankie Blue
vágó: Sean Albertson, Jonathan Del Gatto


Szereplő(k):
Dennis Hopper (Ronnie Purnell)
Will Patton (Aaron Purnell)
Chris Carmack (Matthew Rondell)
Deena Dill (Kate Purnell)
Peter Onorati (Burt Walling)


Tartalom:
Mikor feleségét egy megrendezett rablótámadás alkalmával megölik, a hírhedt bankrabló Ronnie Purnell feladja magát a rendőrségnek. Miután sokévnyi börtönbüntetésre ítélték, kénytelen fiát - Aaron-t - köpönyegforgató barátja és letartóztatásának kiötlője, bizonyos Darryl Kurtz gondjaira bízni. Harminc évvel később a frissen szabadult Purnell ismét az utcákat rója és keresi a bosszút, illetve a régi menekülő kocsiját, egy 1969-es GTO-t melyben megváltásának kulcsa rejlik.
General
Complete name : A mexikói határ (The Last Ride) 2004.avi
Format : AVI
Format/Info : Audio Video Interleave
File size : 1.09 GiB
Duration : 1 h 21 min
Overall bit rate : 1 927 kb/s
Writing application : VirtualDubMod 1.5.10.2 (build 2540/release)
Writing library : VirtualDubMod build 2540/release

Video
ID : 0
Format : MPEG-4 Visual
Format profile : Advanced Simple@L5
Format settings, BVOP : 1
Format settings, QPel : No
Format settings, GMC : No warppoints
Format settings, Matrix : Default (MPEG)
Codec ID : XVID
Codec ID/Hint : XviD
Duration : 1 h 21 min
Bit rate : 1 533 kb/s
Width : 624 pixels
Height : 352 pixels
Display aspect ratio : 16:9
Frame rate : 25.000 FPS
Color space : YUV
Chroma subsampling : 4:2:0
Bit depth : 8 bits
Scan type : Progressive
Compression mode : Lossy
Bits/(Pixel*Frame) : 0.279
Stream size : 889 MiB (80%)
Writing library : XviD 64

Audio
ID : 1
Format : AC-3
Format/Info : Audio Coding 3
Mode extension : CM (complete main)
Format settings, Endianness : Big
Codec ID : 2000
Duration : 1 h 21 min
Bit rate mode : Constant
Bit rate : 384 kb/s
Channel(s) : 6 channels
Channel positions : Front: L C R, Side: L R, LFE
Sampling rate : 48.0 kHz
Frame rate : 31.250 FPS (1536 spf)
Compression mode : Lossy
Stream size : 223 MiB (20%)
Alignment : Split accross interleaves
Interleave, duration : 40 ms (1.00 video frame)
Interleave, preload duratio : 500 ms

[You must be registered and logged in to see this image.]
Kód:
http://data.hu/get/9934902/A_mexiki_hatr_The_Last_Ride_2004.001
http://data.hu/get/9934903/A_mexiki_hatr_The_Last_Ride_2004.002
http://data.hu/get/9934905/A_mexiki_hatr_The_Last_Ride_2004.003
http://data.hu/get/9934900/A_mexiki_hatr_The_Last_Ride_2004.004
http://data.hu/get/9934904/A_mexiki_hatr_The_Last_Ride_2004.005
http://data.hu/get/9934899/A_mexiki_hatr_The_Last_Ride_2004.006
http://data.hu/get/9934901/A_mexiki_hatr_The_Last_Ride_2004.crc

[You must be registered and logged in to see this image.]
Kód:
http://data.hu/get/9934907/A_mexiki_hatr_The_Last_Ride_2004.zip
avatar
bubus66

Hozzászólások száma : 45
Join date : 2016. Jul. 22.

Vissza az elejére Go down

Vissza az elejére

- Similar topics

 
Permissions in this forum:
Nem válaszolhatsz egy témára ebben a fórumban.