datalinkek
Üdvözöllek az oldalon!

Az oldal teljes tartalmának megtekintéséhez regisztrációra van szükség.

Az oldalon minden teljesen ingyenes

Epic.Handjobs

Go down

Epic.Handjobs

Témanyitás by bubus66 on Vas. Aug. 28, 2016 6:53 am

Epic.Handjobs.XXX.DVDRip

[You must be registered and logged in to see this image.]
[You must be registered and logged in to see this image.]

Cast: Allie James, Lizzy London, Reena Sky, Annikka Albrite, Hydii May, Sasha Hall, Esperanza Diaz, Kylee Nicole, Nadia Lopez, Rina Ryder
General
Complete name : Epic Handjobs.mp4
Format : MPEG-4
Format profile : Base Media
Codec ID : isom (isom/iso2/avc1/mp41)
File size : 708 MiB
Duration : 1 h 39 min
Overall bit rate : 999 kb/s
Encoded date : UTC 2016-08-23 05:38:19
Tagged date : UTC 2016-08-23 05:38:19
Writing application : Lavf56.15.102

Video
ID : 1
Format : AVC
Format/Info : Advanced Video Codec
Format profile : Baseline@L3
Format settings, CABAC : No
Format settings, ReFrames : 2 frames
Codec ID : avc1
Codec ID/Info : Advanced Video Coding
Duration : 1 h 39 min
Bit rate : 900 kb/s
Width : 640 pixels
Height : 480 pixels
Display aspect ratio : 4:3
Frame rate mode : Constant
Frame rate : 29.970 (29970/1000) FPS
Color space : YUV
Chroma subsampling : 4:2:0
Bit depth : 8 bits
Scan type : Progressive
Bits/(Pixel*Frame) : 0.098
Stream size : 635 MiB (90%)
Writing library : x264
Encoded date : UTC 2016-08-23 05:38:19
Tagged date : UTC 2016-08-23 05:38:19

Audio
ID : 2
Format : AAC
Format/Info : Advanced Audio Codec
Format profile : LC
Codec ID : 40
Duration : 1 h 39 min
Bit rate mode : Constant
Bit rate : 96.0 kb/s
Channel(s) : 2 channels
Channel positions : Front: L R
Sampling rate : 44.1 kHz
Frame rate : 43.066 FPS (1024 spf)
Compression mode : Lossy
Stream size : 68.0 MiB (10%)
Default : Yes
Alternate group : 1
Encoded date : UTC 2016-08-23 05:38:19
Tagged date : UTC 2016-08-23 05:38:1

[You must be registered and logged in to see this image.]
Kód:
http://data.hu/get/9931571/Epic_Handjobs.001
http://data.hu/get/9931566/Epic_Handjobs.002
http://data.hu/get/9931570/Epic_Handjobs.003
http://data.hu/get/9931569/Epic_Handjobs.004
http://data.hu/get/9931568/Epic_Handjobs.crc

[You must be registered and logged in to see this image.]
Kód:
http://data.hu/get/9931567/Epic_Handjobs.zip

openload
[You must be registered and logged in to see this image.]
Kód:
https://openload.co/f/8BnmuNsuFbE/Epic_Handjobs.mp4
avatar
bubus66

Hozzászólások száma : 45
Join date : 2016. Jul. 22.

Vissza az elejére Go down

Vissza az elejére


 
Permissions in this forum:
Nem válaszolhatsz egy témára ebben a fórumban.