datalinkek
Üdvözöllek az oldalon!

Az oldal teljes tartalmának megtekintéséhez regisztrációra van szükség.

Az oldalon minden teljesen ingyenes

Mother-Daughter Lesbian Lessons 6

Go down

Mother-Daughter Lesbian Lessons 6

Témanyitás by bubus66 on Vas. Aug. 28, 2016 6:48 am

Mother-Daughter Lesbian Lessons 6 XXX.DVDRip

[You must be registered and logged in to see this image.]
[You must be registered and logged in to see this image.]

Stars: Jodi West Anya Olsen Reagan Foxx Alison Rey Mindi Mink Sinn Sage
General
Complete name : MOTHER-DAUGHTER LESBIAN LESSONS 6.mp4
Format : MPEG-4
Format profile : Base Media
Codec ID : isom (isom)
File size : 599 MiB
Duration : 1 h 36 min
Overall bit rate mode : Variable
Overall bit rate : 866 kb/s
Encoded date : UTC 2016-08-24 11:03:30
Tagged date : UTC 2016-08-24 11:03:30

Video
ID : 1
Format : AVC
Format/Info : Advanced Video Codec
Format profile : High@L3.1
Format settings, CABAC : Yes
Format settings, ReFrames : 4 frames
Codec ID : avc1
Codec ID/Info : Advanced Video Coding
Duration : 1 h 36 min
Bit rate : 768 kb/s
Maximum bit rate : 1 960 kb/s
Width : 852 pixels
Height : 480 pixels
Display aspect ratio : 16:9
Original display aspect rat : 16:9
Frame rate mode : Variable
Frame rate : 30.000 FPS
Minimum frame rate : 10.000 FPS
Maximum frame rate : 30.010 FPS
Color space : YUV
Chroma subsampling : 4:2:0
Bit depth : 8 bits
Scan type : Progressive
Bits/(Pixel*Frame) : 0.063
Stream size : 529 MiB (88%)
Writing library : x264
Encoded date : UTC 2016-08-20 23:43:31
Tagged date : UTC 2016-08-24 11:05:56
Color range : Limited
Color primaries : BT.601 NTSC
Transfer characteristics : BT.709
Matrix coefficients : BT.601

Audio
ID : 2
Format : AAC
Format/Info : Advanced Audio Codec
Format profile : LC
Codec ID : 40
Duration : 1 h 36 min
Bit rate mode : Variable
Bit rate : 96.0 kb/s
Maximum bit rate : 125 kb/s
Channel(s) : 2 channels
Channel positions : Front: L R
Sampling rate : 44.1 kHz
Frame rate : 43.066 FPS (1024 spf)
Compression mode : Lossy
Stream size : 66.4 MiB (11%)
Title : Stereo
Default : Yes
Alternate group : 1
Encoded date : UTC 2016-08-20 23:43:31
Tagged date : UTC 2016-08-24 11:05:56

[You must be registered and logged in to see this image.]
Kód:
http://data.hu/get/9934805/MOTHER-DAUGHTER_LESBIAN_LESSONS_6.001
http://data.hu/get/9934801/MOTHER-DAUGHTER_LESBIAN_LESSONS_6.002
http://data.hu/get/9934804/MOTHER-DAUGHTER_LESBIAN_LESSONS_6.003
http://data.hu/get/9934803/MOTHER-DAUGHTER_LESBIAN_LESSONS_6.CRC

[You must be registered and logged in to see this image.]
Kód:
http://data.hu/get/9934802/MOTHER-DAUGHTER_LESBIAN_LESSONS_6.zip

openload
[You must be registered and logged in to see this image.]
Kód:
https://openload.co/f/Tjcd8bYNUWQ/MOTHER-DAUGHTER_LESBIAN_LESSONS_6.mp4
avatar
bubus66

Hozzászólások száma : 45
Join date : 2016. Jul. 22.

Vissza az elejére Go down

Vissza az elejére


 
Permissions in this forum:
Nem válaszolhatsz egy témára ebben a fórumban.