datalinkek
Üdvözöllek az oldalon!

Az oldal teljes tartalmának megtekintéséhez regisztrációra van szükség.

Az oldalon minden teljesen ingyenes

Sorority Sister Showdown

Go down

Sorority Sister Showdown

Témanyitás by bubus66 on Vas. Aug. 28, 2016 6:46 am

Sorority Sister Showdown XXX.DVDRip

[You must be registered and logged in to see this image.]
[You must be registered and logged in to see this image.]

Director: Stills by Alan
Starring: Adriana Sephora, Cassidy Banks, Abby Lee Brazil, Keira Nicole
General
Complete name : Sorority Sister Showdown.mp4
Format : MPEG-4
Format profile : Base Media
Codec ID : isom (isom/iso2/avc1/mp41)
File size : 925 MiB
Duration : 1 h 38 min
Overall bit rate mode : Variable
Overall bit rate : 1 309 kb/s
Season : 0
Movie name : Downloaded from NABLOG.org
Part : 0
ContentType : Short Film
Writing application : Lavf57.19.100

Video
ID : 1
Format : AVC
Format/Info : Advanced Video Codec
Format profile : High@L3.1
Format settings, CABAC : Yes
Format settings, ReFrames : 5 frames
Codec ID : avc1
Codec ID/Info : Advanced Video Coding
Duration : 1 h 38 min
Bit rate : 1 181 kb/s
Width : 720 pixels
Height : 400 pixels
Display aspect ratio : 16:9
Frame rate mode : Constant
Frame rate : 23.976 (24000/1001) FPS
Color space : YUV
Chroma subsampling : 4:2:0
Bit depth : 8 bits
Scan type : Progressive
Bits/(Pixel*Frame) : 0.171
Stream size : 835 MiB (90%)
Writing library : x264
Menus : 3

Audio
ID : 2
Format : AAC
Format/Info : Advanced Audio Codec
Format profile : LC
Codec ID : 40
Duration : 1 h 38 min
Bit rate mode : Variable
Bit rate : 122 kb/s
Maximum bit rate : 194 kb/s
Channel(s) : 2 channels
Channel positions : Front: L R
Sampling rate : 48.0 kHz
Frame rate : 46.875 FPS (1024 spf)
Compression mode : Lossy
Stream size : 86.1 MiB (9%)
Default : Yes
Alternate group : 1
Menus : 3

Menu #1
ID : 3
Codec ID : text
Duration : 1 h 38 min
Language : English
Menu For : 1,2
00:00:00.000 : Chapter 1

Menu #2
00:00:00.000 : Chapter 1

[You must be registered and logged in to see this image.]
Kód:
http://data.hu/get/9919613/Sorority_Sister_Showdown.001
http://data.hu/get/9919615/Sorority_Sister_Showdown.002
http://data.hu/get/9919609/Sorority_Sister_Showdown.003
http://data.hu/get/9919610/Sorority_Sister_Showdown.004
http://data.hu/get/9919611/Sorority_Sister_Showdown.005
http://data.hu/get/9919608/Sorority_Sister_Showdown.crc

[You must be registered and logged in to see this image.]
Kód:
http://data.hu/get/9919612/Sorority_Sister_Showdown.zip

openload
[You must be registered and logged in to see this image.]
Kód:
https://openload.co/f/3FzBgmj2UlM/Sorority_Sister_Showdown.mp4
avatar
bubus66

Hozzászólások száma : 45
Join date : 2016. Jul. 22.

Vissza az elejére Go down

Vissza az elejére

- Similar topics

 
Permissions in this forum:
Nem válaszolhatsz egy témára ebben a fórumban.