datalinkek
Üdvözöllek az oldalon!

Az oldal teljes tartalmának megtekintéséhez regisztrációra van szükség.

Az oldalon minden teljesen ingyenes

Women Seeking Women Vol. 039

Go down

Women Seeking Women Vol. 039

Témanyitás by bubus66 on Szomb. Aug. 20, 2016 6:12 am

Women Seeking Women Vol. 039 XXX.DVDRip

[You must be registered and logged in to see this image.]
[You must be registered and logged in to see this image.]

Cast: Flower Tucci, Samantha Ryan, Heather Silk, Kylie Ireland, Ruca Page, Kelly Kline and Penny Flame Bobbi Eden
General
Complete name : Women seeking Women #39.avi
Format : AVI
Format/Info : Audio Video Interleave
Format profile : OpenDML
Format settings : rec
File size : 1.35 GiB
Duration : 2 h 49 min
Overall bit rate mode : Variable
Overall bit rate : 1 143 kb/s
Writing application : AVI-Mux GUI 1.17.8.3, Feb 16 201019:42:50

Video
ID : 0
Format : MPEG-4 Visual
Format profile : Advanced Simple@L5
Format settings, BVOP : 2
Format settings, QPel : No
Format settings, GMC : No warppoints
Format settings, Matrix : Default (H.263)
Muxing mode : Packed bitstream
Codec ID : XVID
Codec ID/Hint : XviD
Duration : 2 h 49 min
Bit rate : 1 012 kb/s
Width : 512 pixels
Height : 288 pixels
Display aspect ratio : 16:9
Frame rate : 29.970 (29970/1000) FPS
Color space : YUV
Chroma subsampling : 4:2:0
Bit depth : 8 bits
Scan type : Progressive
Compression mode : Lossy
Bits/(Pixel*Frame) : 0.229
Stream size : 1.20 GiB (89%)
Writing library : XviD 1.0.3 (UTC 2004-12-20)

Audio
ID : 1
Format : MPEG Audio
Format version : Version 1
Format profile : Layer 3
Mode : Joint stereo
Mode extension : MS Stereo
Codec ID : 55
Codec ID/Hint : MP3
Duration : 2 h 49 min
Bit rate mode : Variable
Bit rate : 122 kb/s
Nominal bit rate : 128 kb/s
Channel(s) : 2 channels
Sampling rate : 48.0 kHz
Compression mode : Lossy
Stream size : 147 MiB (11%)
Alignment : Aligned on interleaves
Interleave, duration : 24 ms (0.72 video frame)
Interleave, preload duratio : 69 ms
Writing library : LAME3.90.
Encoding settings : -m j -V 4 -q 2 -lowpass 17.6 --abr 128

[You must be registered and logged in to see this image.]
Kód:
http://data.hu/get/9915250/Women_seeking_Women_39.001
http://data.hu/get/9915251/Women_seeking_Women_39.002
http://data.hu/get/9915252/Women_seeking_Women_39.003
http://data.hu/get/9915253/Women_seeking_Women_39.004
http://data.hu/get/9915254/Women_seeking_Women_39.005
http://data.hu/get/9915255/Women_seeking_Women_39.006
http://data.hu/get/9915257/Women_seeking_Women_39.007
http://data.hu/get/9915258/Women_seeking_Women_39.crc

[You must be registered and logged in to see this image.]
Kód:
http://data.hu/get/9915259/Women_seeking_Women_39.zip

openload
[You must be registered and logged in to see this image.]
Kód:
https://openload.co/f/tdmQPlvUhZc/Women_seeking_Women_%2339.avi.mp4
avatar
bubus66

Hozzászólások száma : 45
Join date : 2016. Jul. 22.

Vissza az elejére Go down

Vissza az elejére


 
Permissions in this forum:
Nem válaszolhatsz egy témára ebben a fórumban.