datalinkek
Üdvözöllek az oldalon!

Az oldal teljes tartalmának megtekintéséhez regisztrációra van szükség.

Az oldalon minden teljesen ingyenes

Cheer Squad Sleepovers 15

Go down

Cheer Squad Sleepovers 15

Témanyitás by bubus66 on Szomb. Aug. 20, 2016 5:58 am

Cheer Squad Sleepovers 15XXX.DVDRip

[You must be registered and logged in to see this image.]
[You must be registered and logged in to see this image.]

CAST: Jenna Sativa & Luna Star, Samantha Rone & Tanya Tate, Lena Nicole & Jenna Sativa, Alex Grey, Bree Daniels & Jackey Marie.
General
Unique ID : 205769696009060644455348922024160485546 (0x9ACDCD4A927913F5BFA9B55BE9A160AA)
Complete name : Cheer Squad Sleepovers 15.mkv
Format : Matroska
Format version : Version 4 / Version 2
File size : 3.13 GiB
Duration : 3 h 33 min
Overall bit rate : 2 100 kb/s
Encoded date : UTC 2016-03-18 06:00:15
Writing application : mkvmerge v8.9.0 ('Father Daughter') 64bit
Writing library : libebml v1.3.3 + libmatroska v1.4.4

Video
ID : 1
Format : AVC
Format/Info : Advanced Video Codec
Format profile : Baseline@L3.1
Format settings, CABAC : No
Format settings, ReFrames : 2 frames
Codec ID : V_MPEG4/ISO/AVC
Duration : 3 h 33 min
Bit rate mode : Constant
Bit rate : 2 048 kb/s
Width : 852 pixels
Height : 480 pixels
Display aspect ratio : 16:9
Original display aspect rat : 16:9
Frame rate mode : Variable
Frame rate : 29.970 FPS
Standard : NTSC
Color space : YUV
Chroma subsampling : 4:2:0
Bit depth : 8 bits
Scan type : Progressive
Bits/(Pixel*Frame) : 0.167
Stream size : 3.03 GiB (97%)
Default : Yes
Forced : No
Color range : Limited

Audio
ID : 2
Format : AAC
Format/Info : Advanced Audio Codec
Format profile : LC
Codec ID : A_AAC
Duration : 3 h 33 min
Bit rate : 61.7 kb/s
Channel(s) : 2 channels
Channel positions : Front: L R
Sampling rate : 44.1 kHz
Frame rate : 43.066 FPS (1024 spf)
Compression mode : Lossy
Stream size : 94.1 MiB (3%)
Default : Yes
Forced : No

[You must be registered and logged in to see this image.]
Kód:
http://data.hu/get/9922424/Cheer_Squad_Sleepovers_15.001
http://data.hu/get/9922422/Cheer_Squad_Sleepovers_15.002
http://data.hu/get/9922425/Cheer_Squad_Sleepovers_15.003
http://data.hu/get/9922429/Cheer_Squad_Sleepovers_15.004
http://data.hu/get/9922430/Cheer_Squad_Sleepovers_15.005
http://data.hu/get/9922416/Cheer_Squad_Sleepovers_15.006
http://data.hu/get/9922428/Cheer_Squad_Sleepovers_15.007
http://data.hu/get/9922419/Cheer_Squad_Sleepovers_15.008
http://data.hu/get/9922426/Cheer_Squad_Sleepovers_15.009
http://data.hu/get/9922417/Cheer_Squad_Sleepovers_15.010
http://data.hu/get/9922421/Cheer_Squad_Sleepovers_15.011
http://data.hu/get/9922431/Cheer_Squad_Sleepovers_15.012
http://data.hu/get/9922415/Cheer_Squad_Sleepovers_15.013
http://data.hu/get/9922418/Cheer_Squad_Sleepovers_15.014
http://data.hu/get/9922423/Cheer_Squad_Sleepovers_15.015
http://data.hu/get/9922432/Cheer_Squad_Sleepovers_15.016
http://data.hu/get/9922420/Cheer_Squad_Sleepovers_15.017
http://data.hu/get/9922427/Cheer_Squad_Sleepovers_15.crc

[You must be registered and logged in to see this image.]
Kód:
http://data.hu/get/9922406/Cheer_Squad_Sleepovers_15.001
http://data.hu/get/9922405/Cheer_Squad_Sleepovers_15.002
http://data.hu/get/9922407/Cheer_Squad_Sleepovers_15.003
http://data.hu/get/9922408/Cheer_Squad_Sleepovers_15.crc

openload
[You must be registered and logged in to see this image.]
Kód:
https://openload.co/f/98M6sADRzcU/Cheer_Squad_Sleepovers_15.mkv.mp4
avatar
bubus66

Hozzászólások száma : 45
Join date : 2016. Jul. 22.

Vissza az elejére Go down

Vissza az elejére


 
Permissions in this forum:
Nem válaszolhatsz egy témára ebben a fórumban.