datalinkek
Üdvözöllek az oldalon!

Az oldal teljes tartalmának megtekintéséhez regisztrációra van szükség.

Az oldalon minden teljesen ingyenes

Women seeking Women Vol. 020

Go down

Women seeking Women Vol. 020

Témanyitás by bubus66 on Szer. Júl. 27, 2016 8:45 am

Women seeking Women Vol. 020 XXX.DVDRip

[You must be registered and logged in to see this image.]
[You must be registered and logged in to see this image.]

Cast: Irina Sky & Courtney Simpson Amazon & Lena Ramon, Kelly Kline & Emilliana Ami Charms & Karin
General
Complete name : Women seeking Women #20.avi
Format : AVI
Format/Info : Audio Video Interleave
Format profile : OpenDML
Format settings : rec
File size : 1.35 GiB
Duration : 3h 40mn
Overall bit rate mode : Variable
Overall bit rate : 874 Kbps
Writing application : AVI-Mux GUI 1.17.8.3, Feb 16 201019:42:50

Video
ID : 0
Format : MPEG-4 Visual
Format profile : Simple@L3
Format settings, BVOP : No
Format settings, QPel : No
Format settings, GMC : No warppoints
Format settings, Matrix : Default (H.263)
Codec ID : XVID
Codec ID/Hint : XviD
Duration : 3h 40mn
Bit rate : 744 Kbps
Width : 448 pixels
Height : 336 pixels
Display aspect ratio : 4:3
Frame rate : 29.970 (29970/1000) fps
Color space : YUV
Chroma subsampling : 4:2:0
Bit depth : 8 bits
Scan type : Progressive
Compression mode : Lossy
Bits/(Pixel*Frame) : 0.165
Stream size : 1.15 GiB (85%)
Writing library : XviD 0.0.09 (UTC 2003-03-25)

Audio
ID : 1
Format : MPEG Audio
Format version : Version 1
Format profile : Layer 3
Mode : Joint stereo
Mode extension : MS Stereo
Codec ID : 55
Codec ID/Hint : MP3
Duration : 3h 40mn
Bit rate mode : Variable
Bit rate : 122 Kbps
Nominal bit rate : 128 Kbps
Channel(s) : 2 channels
Sampling rate : 48.0 KHz
Compression mode : Lossy
Stream size : 192 MiB (14%)
Alignment : Aligned on interleaves
Interleave, duration : 24 ms (0.72 video frame)
Interleave, preload duratio : 69 ms
Writing library : LAME3.96r
Encoding settings : -m j -V 4 -q 3 -lowpass 17.5 --abr 128

[You must be registered and logged in to see this image.]
Kód:
http://data.hu/get/9872019/Women_seeking_Women_20.001
http://data.hu/get/9872018/Women_seeking_Women_20.002
http://data.hu/get/9872020/Women_seeking_Women_20.003
http://data.hu/get/9872021/Women_seeking_Women_20.004
http://data.hu/get/9872022/Women_seeking_Women_20.005
http://data.hu/get/9872023/Women_seeking_Women_20.006
http://data.hu/get/9872024/Women_seeking_Women_20.007
http://data.hu/get/9872025/Women_seeking_Women_20.crc

[You must be registered and logged in to see this image.]
Kód:
http://data.hu/get/9873558/Women_seeking_Women_20.zip

openload
[You must be registered and logged in to see this image.]
Kód:
https://oload.co/f/6VpEiIFqL8s/Women_seeking_Women_%2320.avi.mp4
avatar
bubus66

Hozzászólások száma : 45
Join date : 2016. Jul. 22.

Vissza az elejére Go down

Vissza az elejére


 
Permissions in this forum:
Nem válaszolhatsz egy témára ebben a fórumban.