datalinkek
Üdvözöllek az oldalon!

Az oldal teljes tartalmának megtekintéséhez regisztrációra van szükség.

Az oldalon minden teljesen ingyenes

Women seeking Women Vol. 019

Go down

Women seeking Women Vol. 019

Témanyitás by bubus66 on Szer. Júl. 27, 2016 8:38 am

Women seeking Women Vol. 019 XXX.DVDRip

[You must be registered and logged in to see this image.]
[You must be registered and logged in to see this image.]

Cast: Sofey & Celestia Star, Brea Bennett & Cody Milo,Naomi & Sara Emilianna & Kendra Allen
General
Complete name : Women seeking Women #19.avi
Format : AVI
Format/Info : Audio Video Interleave
Format profile : OpenDML
Format settings : rec
File size : 1.36 GiB
Duration : 3h 25mn
Overall bit rate mode : Variable
Overall bit rate : 946 Kbps
Writing application : AVI-Mux GUI 1.17.8.3, Feb 16 201019:42:50

Video
ID : 0
Format : MPEG-4 Visual
Format profile : Advanced Simple@L5
Format settings, BVOP : 2
Format settings, QPel : No
Format settings, GMC : No warppoints
Format settings, Matrix : Default (H.263)
Muxing mode : Packed bitstream
Codec ID : XVID
Codec ID/Hint : XviD
Duration : 3h 25mn
Bit rate : 785 Kbps
Width : 448 pixels
Height : 336 pixels
Display aspect ratio : 4:3
Frame rate : 29.970 (29970/1000) fps
Color space : YUV
Chroma subsampling : 4:2:0
Bit depth : 8 bits
Scan type : Interlaced
Scan order : Bottom Field First
Compression mode : Lossy
Bits/(Pixel*Frame) : 0.174
Stream size : 1.13 GiB (83%)
Writing library : XviD 1.1.0 (UTC 2005-11-22)

Audio
ID : 1
Format : MPEG Audio
Format version : Version 1
Format profile : Layer 3
Mode : Joint stereo
Mode extension : MS Stereo
Codec ID : 55
Codec ID/Hint : MP3
Duration : 3h 25mn
Bit rate mode : Variable
Bit rate : 151 Kbps
Nominal bit rate : 160 Kbps
Channel(s) : 2 channels
Sampling rate : 48.0 KHz
Compression mode : Lossy
Stream size : 222 MiB (16%)
Alignment : Aligned on interleaves
Interleave, duration : 24 ms (0.72 video frame)
Interleave, preload duratio : 55 ms
Writing library : LAME3.95
Encoding settings : -m j -V 4 -q 3 -lowpass 18 --abr 160

[You must be registered and logged in to see this image.]
Kód:
http://data.hu/get/9871886/Women_seeking_Women_19.001
http://data.hu/get/9871887/Women_seeking_Women_19.002
http://data.hu/get/9871889/Women_seeking_Women_19.003
http://data.hu/get/9871890/Women_seeking_Women_19.004
http://data.hu/get/9871891/Women_seeking_Women_19.005
http://data.hu/get/9871892/Women_seeking_Women_19.006
http://data.hu/get/9871893/Women_seeking_Women_19.007
http://data.hu/get/9871894/Women_seeking_Women_19.crc

[You must be registered and logged in to see this image.]
Kód:
http://data.hu/get/9873471/Women_seeking_Women_19.zip

openload
[You must be registered and logged in to see this image.]
Kód:
https://oload.co/f/KAR7Qmi4oIU/Women_seeking_Women_%2319.avi.mp4
avatar
bubus66

Hozzászólások száma : 45
Join date : 2016. Jul. 22.

Vissza az elejére Go down

Vissza az elejére


 
Permissions in this forum:
Nem válaszolhatsz egy témára ebben a fórumban.