datalinkek
Üdvözöllek az oldalon!

Az oldal teljes tartalmának megtekintéséhez regisztrációra van szükség.

Az oldalon minden teljesen ingyenes

Women seeking Women Vol. 018

Go down

Women seeking Women Vol. 018

Témanyitás by bubus66 on Szer. Júl. 27, 2016 8:33 am

Women seeking Women Vol. 018 XXX.DVDRip

[You must be registered and logged in to see this image.]
[You must be registered and logged in to see this image.]

Cast: Celeste Star & Elexis Monroe Kaiya Lynn & Kina Kai, Jassie & Lilliana Ginger Lea & Mysti May
General
Complete name : Women seeking Women #18.avi
Format : AVI
Format/Info : Audio Video Interleave
Format profile : OpenDML
Format settings : rec
File size : 1.77 GiB
Duration : 2h 37mn
Overall bit rate : 1 614 Kbps
Writing application : AVI-Mux GUI 1.17.8.3, Feb 16 201019:42:50

Video
ID : 0
Format : MPEG-4 Visual
Format profile : Advanced Simple@L5
Format settings, BVOP : 1
Format settings, QPel : No
Format settings, GMC : No warppoints
Format settings, Matrix : Custom
Codec ID : XVID
Codec ID/Hint : XviD
Duration : 2h 37mn
Bit rate : 1 476 Kbps
Width : 576 pixels
Height : 432 pixels
Display aspect ratio : 4:3
Frame rate : 29.970 (29970/1000) fps
Color space : YUV
Chroma subsampling : 4:2:0
Bit depth : 8 bits
Scan type : Progressive
Compression mode : Lossy
Bits/(Pixel*Frame) : 0.198
Stream size : 1.62 GiB (91%)
Writing library : XviD 1.2.0.dev47 (UTC 2006-11-01)

Audio
ID : 1
Format : MPEG Audio
Format version : Version 1
Format profile : Layer 3
Codec ID : 55
Codec ID/Hint : MP3
Duration : 2h 37mn
Bit rate mode : Constant
Bit rate : 128 Kbps
Channel(s) : 1 channel
Sampling rate : 48.0 KHz
Compression mode : Lossy
Stream size : 144 MiB (8%)
Alignment : Aligned on interleaves
Interleave, duration : 24 ms (0.72 video frame)
Interleave, preload duratio : 192 ms
Writing library : LAME3.96.1

[You must be registered and logged in to see this image.]
Kód:
http://data.hu/get/9871840/Women_seeking_Women_18.001
http://data.hu/get/9871841/Women_seeking_Women_18.002
http://data.hu/get/9871842/Women_seeking_Women_18.003
http://data.hu/get/9871843/Women_seeking_Women_18.004
http://data.hu/get/9871844/Women_seeking_Women_18.005
http://data.hu/get/9871845/Women_seeking_Women_18.006
http://data.hu/get/9871846/Women_seeking_Women_18.007
http://data.hu/get/9871847/Women_seeking_Women_18.008
http://data.hu/get/9871848/Women_seeking_Women_18.009
http://data.hu/get/9871849/Women_seeking_Women_18.010
http://data.hu/get/9871850/Women_seeking_Women_18.crc

[You must be registered and logged in to see this image.]
Kód:
http://data.hu/get/9871851/Women_seeking_Women_18.zip

openload
[You must be registered and logged in to see this image.]
Kód:
https://oload.co/f/lBF95ujm0d8/Women_seeking_Women_%2318.avi.mp4
avatar
bubus66

Hozzászólások száma : 45
Join date : 2016. Jul. 22.

Vissza az elejére Go down

Vissza az elejére


 
Permissions in this forum:
Nem válaszolhatsz egy témára ebben a fórumban.