datalinkek
Üdvözöllek az oldalon!

Az oldal teljes tartalmának megtekintéséhez regisztrációra van szükség.

Az oldalon minden teljesen ingyenes

Women seeking Women Vol. 017

Go down

Women seeking Women Vol. 017

Témanyitás by bubus66 on Szer. Júl. 27, 2016 8:29 am

Women seeking Women Vol. 017 XXX.DVDRip

[You must be registered and logged in to see this image.]
[You must be registered and logged in to see this image.]

Cast: Mika Tan, Sasha Knox, Thea Reyes, Brianna Love, Shasta, Ailea Tyler & Candy
General
Complete name : Women seeking Women #17.avi
Format : AVI
Format/Info : Audio Video Interleave
Format settings : rec
File size : 1.36 GiB
Duration : 3h 5mn
Overall bit rate mode : Variable
Overall bit rate : 1 051 Kbps

Video
ID : 0
Format : MPEG-4 Visual
Format profile : Advanced Simple@L5
Format settings, BVOP : 3
Format settings, QPel : No
Format settings, GMC : No warppoints
Format settings, Matrix : Default (H.263)
Muxing mode : Packed bitstream
Codec ID : XVID
Codec ID/Hint : XviD
Duration : 3h 5mn
Bit rate : 883 Kbps
Width : 448 pixels
Height : 336 pixels
Display aspect ratio : 4:3
Frame rate : 29.970 (29970/1000) fps
Color space : YUV
Chroma subsampling : 4:2:0
Bit depth : 8 bits
Scan type : Interlaced
Scan order : Bottom Field First
Compression mode : Lossy
Bits/(Pixel*Frame) : 0.196
Stream size : 1.15 GiB (84%)
Writing library : XviD 1.1.0 Beta2 (UTC 2005-04-04)

Audio
ID : 1
Format : MPEG Audio
Format version : Version 1
Format profile : Layer 3
Mode : Joint stereo
Mode extension : MS Stereo
Codec ID : 55
Codec ID/Hint : MP3
Duration : 3h 5mn
Bit rate mode : Variable
Bit rate : 160 Kbps
Channel(s) : 2 channels
Sampling rate : 48.0 KHz
Compression mode : Lossy
Stream size : 204 MiB (15%)
Alignment : Aligned on interleaves
Interleave, duration : 24 ms (0.72 video frame)
Writing library : LAME3.95
Encoding settings : -m j -V 4 -q 3 -lowpass 18 --abr 160

[You must be registered and logged in to see this image.]
Kód:
http://data.hu/get/9871739/Women_seeking_Women_17.001
http://data.hu/get/9871740/Women_seeking_Women_17.002
http://data.hu/get/9871741/Women_seeking_Women_17.003
http://data.hu/get/9871742/Women_seeking_Women_17.004
http://data.hu/get/9871743/Women_seeking_Women_17.005
http://data.hu/get/9871744/Women_seeking_Women_17.006
http://data.hu/get/9871745/Women_seeking_Women_17.007
http://data.hu/get/9871746/Women_seeking_Women_17.crc

[You must be registered and logged in to see this image.]
Kód:
http://data.hu/get/9871747/Women_seeking_Women_17.zip

openload
[You must be registered and logged in to see this image.]
Kód:
https://openload.co/f/K8vg7i15BU0/Women_seeking_Women_%2317.avi.mp4
avatar
bubus66

Hozzászólások száma : 45
Join date : 2016. Jul. 22.

Vissza az elejére Go down

Vissza az elejére


 
Permissions in this forum:
Nem válaszolhatsz egy témára ebben a fórumban.