datalinkek
Üdvözöllek az oldalon!

Az oldal teljes tartalmának megtekintéséhez regisztrációra van szükség.

Az oldalon minden teljesen ingyenes

Women seeking Women Vol. 016

Go down

Women seeking Women Vol. 016

Témanyitás by bubus66 on Vas. Júl. 24, 2016 7:12 am

Women seeking Women Vol. 016 XXX.DVDRip

[You must be registered and logged in to see this image.]
[You must be registered and logged in to see this image.]

Cast: Aubrey, Nicole Moore, Autum, Deauxma, Elexis Monroe, Puma Swede, Laveah and Monica Mayhem
General
Complete name : Women seeking Women #16.avi
Format : AVI
Format/Info : Audio Video Interleave
Format profile : OpenDML
Format settings : rec
File size : 1.88 GiB
Duration : 3h 40mn
Overall bit rate : 1 219 Kbps
Writing application : AVI-Mux GUI 1.17.8.3, Feb 16 201019:42:50

Video
ID : 0
Format : MPEG-4 Visual
Format profile : Advanced Simple@L5
Format settings, BVOP : 1
Format settings, QPel : No
Format settings, GMC : No warppoints
Format settings, Matrix : Default (H.263)
Muxing mode : Packed bitstream
Codec ID : XVID
Codec ID/Hint : XviD
Duration : 3h 40mn
Bit rate : 1 017 Kbps
Width : 480 pixels
Height : 320 pixels
Display aspect ratio : 3:2
Frame rate : 29.970 (30000/1001) fps
Color space : YUV
Chroma subsampling : 4:2:0
Bit depth : 8 bits
Scan type : Progressive
Compression mode : Lossy
Bits/(Pixel*Frame) : 0.221
Stream size : 1.57 GiB (83%)
Writing library : XviD 1.1.0 (UTC 2005-11-22)

Audio
ID : 1
Format : MPEG Audio
Format version : Version 1
Format profile : Layer 3
Mode : Joint stereo
Mode extension : MS Stereo
Codec ID : 55
Codec ID/Hint : MP3
Duration : 3h 40mn
Bit rate mode : Constant
Bit rate : 192 Kbps
Channel(s) : 2 channels
Sampling rate : 48.0 KHz
Compression mode : Lossy
Stream size : 303 MiB (16%)
Alignment : Aligned on interleaves
Interleave, duration : 24 ms (0.72 video frame)
Interleave, preload duratio : 192 ms
Writing library : LAME3.97b
Encoding settings : -m j -V 4 -q 2 -lowpass 18.6 -b 192

[You must be registered and logged in to see this image.]
Kód:
http://data.hu/get/9868387/Women_seeking_Women_16.001
http://data.hu/get/9868388/Women_seeking_Women_16.002
http://data.hu/get/9868389/Women_seeking_Women_16.003
http://data.hu/get/9868390/Women_seeking_Women_16.004
http://data.hu/get/9868391/Women_seeking_Women_16.005
http://data.hu/get/9868392/Women_seeking_Women_16.006
http://data.hu/get/9868393/Women_seeking_Women_16.007
http://data.hu/get/9868394/Women_seeking_Women_16.008
http://data.hu/get/9868395/Women_seeking_Women_16.009
http://data.hu/get/9868396/Women_seeking_Women_16.010
http://data.hu/get/9868397/Women_seeking_Women_16.crc

[You must be registered and logged in to see this image.]
Kód:
http://data.hu/get/9868399/Women_seeking_Women_16.zip

openload
[You must be registered and logged in to see this image.]
Kód:
https://openload.co/f/gbItFBmlS-k/Women_seeking_Women_%2316.avi.mp4
avatar
bubus66

Hozzászólások száma : 45
Join date : 2016. Jul. 22.

Vissza az elejére Go down

Vissza az elejére


 
Permissions in this forum:
Nem válaszolhatsz egy témára ebben a fórumban.