datalinkek
Üdvözöllek az oldalon!

Az oldal teljes tartalmának megtekintéséhez regisztrációra van szükség.

Az oldalon minden teljesen ingyenes

Women seeking Women Vol. 014

Go down

Women seeking Women Vol. 014

Témanyitás by bubus66 on Vas. Júl. 24, 2016 7:00 am

Women seeking Women Vol. 14 XXX.DVDRip

[You must be registered and logged in to see this image.]
[You must be registered and logged in to see this image.]

Cast: Elexis Monroe, Michelle Lay, Brianna Love, Gia, Anna Mills, Valerie Herrera, Lisa Daniels and Shannon Adams
General
Complete name :Women Seeking Women #14.mp4
Format : MPEG-4
Format profile : Base Media
Codec ID : isom (isom/iso2/avc1/mp41)
File size : 1.09 GiB
Duration : 2h 22mn
Overall bit rate : 1 098 Kbps
Writing application : Lavf55.21.101

Video
ID : 1
Format : AVC
Format/Info : Advanced Video Codec
Format profile : High@L3
Format settings, CABAC : Yes
Format settings, ReFrames : 4 frames
Codec ID : avc1
Codec ID/Info : Advanced Video Coding
Duration : 2h 22mn
Bit rate : 1 024 Kbps
Width : 512 pixels
Height : 384 pixels
Display aspect ratio : 4:3
Frame rate mode : Variable
Frame rate : 29.929 fps
Minimum frame rate : 0.394 fps
Maximum frame rate : 250.000 fps
Color space : YUV
Chroma subsampling : 4:2:0
Bit depth : 8 bits
Scan type : Progressive
Bits/(Pixel*Frame) : 0.174
Stream size : 1.02 GiB (93%)
Writing library : x264
aq=1:1.00
Color range : Limited
Color primaries : BT.601 NTSC
Transfer characteristics : BT.709
Matrix coefficients : BT.601

Audio
ID : 2
Format : AAC
Format/Info : Advanced Audio Codec
Format profile : LC
Codec ID : 40
Duration : 2h 22mn
Bit rate mode : Constant
Bit rate : 64.0 Kbps
Channel(s) : 2 channels
Channel positions : Front: L R
Sampling rate : 44.1 KHz
Frame rate : 43.066 fps (1024 spf)
Compression mode : Lossy
Stream size : 65.3 MiB (6%)
Default : Yes
Alternate group : 1

[You must be registered and logged in to see this image.]
Kód:
http://data.hu/get/9868268/Women_Seeking_Women_14.001
http://data.hu/get/9868269/Women_Seeking_Women_14.002
http://data.hu/get/9868270/Women_Seeking_Women_14.003
http://data.hu/get/9868272/Women_Seeking_Women_14.004
http://data.hu/get/9868274/Women_Seeking_Women_14.005
http://data.hu/get/9868275/Women_Seeking_Women_14.006
http://data.hu/get/9868276/Women_Seeking_Women_14.crc

[You must be registered and logged in to see this image.]
Kód:
http://data.hu/get/9868278/Women_Seeking_Women_14.zip

openload
[You must be registered and logged in to see this image.]
Kód:
https://openload.co/f/QgbiV1sjZCU/Women_Seeking_Women_%2314.mp4
avatar
bubus66

Hozzászólások száma : 45
Join date : 2016. Jul. 22.

Vissza az elejére Go down

Vissza az elejére


 
Permissions in this forum:
Nem válaszolhatsz egy témára ebben a fórumban.