datalinkek
Üdvözöllek az oldalon!

Az oldal teljes tartalmának megtekintéséhez regisztrációra van szükség.

Az oldalon minden teljesen ingyenes

Women Seeking Women 012

Go down

Women Seeking Women 012

Témanyitás by bubus66 on Vas. Júl. 24, 2016 6:51 am

Women Seeking Women 012 XXX.DVDRip-AVI

[You must be registered and logged in to see this image.]
[You must be registered and logged in to see this image.]

Cast: Porsche Lynn, Diana, Bella Starr, Holly Hollywood, Anna Mills and Cameron

General
Complete name :Women_Seeking_Women_12.avi
Format : AVI
Format/Info : Audio Video Interleave
Format profile : OpenDML
File size : 1.80 GiB
Duration : 2h 28mn
Overall bit rate : 1 729 Kbps
Writing library : MPlayer

Video
ID : 0
Format : MPEG-4 Visual
Format profile : Advanced Simple@L5
Format settings, BVOP : 1
Format settings, QPel : No
Format settings, GMC : No warppoints
Format settings, Matrix : Default (H.263)
Muxing mode : Packed bitstream
Codec ID : XVID
Codec ID/Hint : XviD
Duration : 2h 28mn
Bit rate : 1 563 Kbps
Width : 720 pixels
Height : 528 pixels
Display aspect ratio : 4:3
Frame rate : 29.970 fps
Color space : YUV
Chroma subsampling : 4:2:0
Bit depth : 8 bits
Scan type : Progressive
Compression mode : Lossy
Bits/(Pixel*Frame) : 0.137
Stream size : 1.62 GiB (90%)
Writing library : XviD 1.2.1 (UTC 2008-12-04)

Audio
ID : 1
Format : MPEG Audio
Format version : Version 1
Format profile : Layer 3
Mode : Joint stereo
Mode extension : MS Stereo
Codec ID : 55
Codec ID/Hint : MP3
Duration : 2h 28mn
Bit rate mode : Constant
Bit rate : 160 Kbps
Channel(s) : 2 channels
Sampling rate : 48.0 KHz
Compression mode : Lossy
Stream size : 170 MiB (9%)
Alignment : Aligned on interleaves
Interleave, duration : 480 ms (14.38 video frames)
Interleave, preload duratio : 960 ms
Writing library : LAME3.98r
Encoding settings : -m j -V 4 -q 2 -lowpass 17.5 -b 160

[You must be registered and logged in to see this image.]
Kód:
http://data.hu/get/9867500/Women_Seeking_Women_12.001
http://data.hu/get/9867501/Women_Seeking_Women_12.002
http://data.hu/get/9867502/Women_Seeking_Women_12.003
http://data.hu/get/9867503/Women_Seeking_Women_12.004
http://data.hu/get/9867504/Women_Seeking_Women_12.005
http://data.hu/get/9867505/Women_Seeking_Women_12.006
http://data.hu/get/9867506/Women_Seeking_Women_12.007
http://data.hu/get/9867507/Women_Seeking_Women_12.008
http://data.hu/get/9867508/Women_Seeking_Women_12.009
http://data.hu/get/9867509/Women_Seeking_Women_12.010
http://data.hu/get/9867510/Women_Seeking_Women_12.crc

[You must be registered and logged in to see this image.]
Kód:
http://data.hu/get/9867511/Women_Seeking_Women_12.zip

[You must be registered and logged in to see this image.]
Kód:
https://openload.co/f/x9JAnS5SOQM/Women_Seeking_Women_12.avi.mp4
avatar
bubus66

Hozzászólások száma : 45
Join date : 2016. Jul. 22.

Vissza az elejére Go down

Vissza az elejére


 
Permissions in this forum:
Nem válaszolhatsz egy témára ebben a fórumban.