datalinkek
Üdvözöllek az oldalon!

Az oldal teljes tartalmának megtekintéséhez regisztrációra van szükség.

Az oldalon minden teljesen ingyenes

Women Seeking Women 011

Go down

Women Seeking Women 011

Témanyitás by bubus66 on Vas. Júl. 24, 2016 6:47 am

Women Seeking Women 011 XXX.DVDRip

[You must be registered and logged in to see this image.]
[You must be registered and logged in to see this image.]

Cast: Bella Starr & Charlie Laine, Kyla & Elexis Monroe, Kayla & Melanie.

General
Complete name : Women_Seeking_Women_11.avi
Format : AVI
Format/Info : Audio Video Interleave
Format profile : OpenDML
File size : 1.52 GiB
Duration : 1h 52mn
Overall bit rate : 1 936 Kbps
Writing library : MPlayer

Video
ID : 0
Format : MPEG-4 Visual
Format profile : Advanced Simple@L5
Format settings, BVOP : 2
Format settings, QPel : No
Format settings, GMC : No warppoints
Format settings, Matrix : Default (H.263)
Muxing mode : Packed bitstream
Codec ID : XVID
Codec ID/Hint : XviD
Duration : 1h 52mn
Bit rate : 1 769 Kbps
Width : 640 pixels
Height : 480 pixels
Display aspect ratio : 4:3
Frame rate : 29.970 fps
Color space : YUV
Chroma subsampling : 4:2:0
Bit depth : 8 bits
Scan type : Progressive
Compression mode : Lossy
Bits/(Pixel*Frame) : 0.192
Stream size : 1.39 GiB (91%)
Writing library : XviD 1.0.1 (UTC 2004-06-05)

Audio
ID : 1
Format : MPEG Audio
Format version : Version 1
Format profile : Layer 3
Mode : Joint stereo
Mode extension : MS Stereo
Codec ID : 55
Codec ID/Hint : MP3
Duration : 1h 52mn
Bit rate mode : Constant
Bit rate : 160 Kbps
Channel(s) : 2 channels
Sampling rate : 48.0 KHz
Compression mode : Lossy
Stream size : 129 MiB (8%)
Alignment : Aligned on interleaves
Interleave, duration : 480 ms (14.38 video frames)
Interleave, preload duratio : 960 ms

[You must be registered and logged in to see this image.]
Kód:
http://data.hu/get/9867432/Women_Seeking_Women_11.001
http://data.hu/get/9867433/Women_Seeking_Women_11.002
http://data.hu/get/9867434/Women_Seeking_Women_11.003
http://data.hu/get/9867435/Women_Seeking_Women_11.004
http://data.hu/get/9867436/Women_Seeking_Women_11.005
http://data.hu/get/9867437/Women_Seeking_Women_11.006
http://data.hu/get/9867438/Women_Seeking_Women_11.007
http://data.hu/get/9867439/Women_Seeking_Women_11.008
http://data.hu/get/9867440/Women_Seeking_Women_11.crc

[You must be registered and logged in to see this image.]
Kód:
http://data.hu/get/9867441/Women_Seeking_Women_11.zip

[You must be registered and logged in to see this image.]
Kód:
https://openload.co/f/OaWZSMhXMRY/Women_Seeking_Women_11.avi.mp4
avatar
bubus66

Hozzászólások száma : 45
Join date : 2016. Jul. 22.

Vissza az elejére Go down

Vissza az elejére


 
Permissions in this forum:
Nem válaszolhatsz egy témára ebben a fórumban.