datalinkek
Üdvözöllek az oldalon!

Az oldal teljes tartalmának megtekintéséhez regisztrációra van szükség.

Az oldalon minden teljesen ingyenes

Women seeking Women Vol. 008

Go down

Women seeking Women Vol. 008

Témanyitás by bubus66 on Vas. Júl. 24, 2016 6:33 am

Women seeking Women Vol. 008 XXX.DVDRip

[You must be registered and logged in to see this image.]
[You must be registered and logged in to see this image.]

Cast: Kelly Steele, Lena Ramone, Nicole Moore, Veronica Snow , Charlie Laine & Penny Flame
General
Complete name               : Women seeking Women #8.avi
Format                      : AVI
Format/Info                 : Audio Video Interleave
File size                   : 1.80 GiB
Duration                    : 2h 27mn
Overall bit rate            : 1 754 Kbps
Writing library             : VirtualDub build 22945/release

Video
ID                          : 0
Format                      : MPEG-4 Visual
Format profile              : Simple@L3
Format settings, BVOP       : 2
Format settings, QPel       : No
Format settings, GMC        : No warppoints
Format settings, Matrix     : Default (H.263)
Codec ID                    : XVID
Codec ID/Hint               : XviD
Duration                    : 2h 27mn
Bit rate                    : 1 582 Kbps
Width                       : 720 pixels
Height                      : 480 pixels
Display aspect ratio        : 3:2
Frame rate                  : 29.970 (29970/1000) fps
Standard                    : NTSC
Color space                 : YUV
Chroma subsampling          : 4:2:0
Bit depth                   : 8 bits
Scan type                   : Progressive
Compression mode            : Lossy
Bits/(Pixel*Frame)          : 0.153
Stream size                 : 1.63 GiB (90%)
Writing library             : XviD 1.1.0 Beta2 (UTC 2005-04-04)

Audio
ID                          : 1
Format                      : MPEG Audio
Format version              : Version 1
Format profile              : Layer 3
Mode                        : Joint stereo
Mode extension              : MS Stereo
Codec ID                    : 55
Codec ID/Hint               : MP3
Duration                    : 2h 27mn
Bit rate mode               : Constant
Bit rate                    : 160 Kbps
Channel(s)                  : 2 channels
Sampling rate               : 48.0 KHz
Compression mode            : Lossy
Stream size                 : 168 MiB (9%)
Alignment                   : Split accross interleaves
Interleave, duration        : 33 ms (1.00 video frame)
Writing library             : LAME3.97

[You must be registered and logged in to see this image.]
Kód:
http://data.hu/get/9866164/Women_seeking_Women_8.001
http://data.hu/get/9866165/Women_seeking_Women_8.002
http://data.hu/get/9866166/Women_seeking_Women_8.003
http://data.hu/get/9866167/Women_seeking_Women_8.004
http://data.hu/get/9866168/Women_seeking_Women_8.005
http://data.hu/get/9866169/Women_seeking_Women_8.006
http://data.hu/get/9866170/Women_seeking_Women_8.007
http://data.hu/get/9866171/Women_seeking_Women_8.008
http://data.hu/get/9866172/Women_seeking_Women_8.009
http://data.hu/get/9866173/Women_seeking_Women_8.010
http://data.hu/get/9866174/Women_seeking_Women_8.crc

[You must be registered and logged in to see this image.]
Kód:
http://data.hu/get/9866176/Women_seeking_Women_8.zip

openload
[You must be registered and logged in to see this image.]
Kód:
https://openload.co/f/9VjMGmEpfnk/Women_seeking_Women_%238.avi.mp4

bitporno
[You must be registered and logged in to see this image.]
Kód:
https://www.bitporno.sx/?v=KYhEN2ISL
avatar
bubus66

Hozzászólások száma : 45
Join date : 2016. Jul. 22.

Vissza az elejére Go down

Vissza az elejére


 
Permissions in this forum:
Nem válaszolhatsz egy témára ebben a fórumban.