datalinkek
Üdvözöllek az oldalon!

Az oldal teljes tartalmának megtekintéséhez regisztrációra van szükség.

Az oldalon minden teljesen ingyenes

Women seeking Women Vol. 007

Go down

Women seeking Women Vol. 007

Témanyitás by bubus66 on Szomb. Júl. 23, 2016 6:28 am

Women seeking Women Vol. 007 XXX.DVDRip

[You must be registered and logged in to see this image.]
[You must be registered and logged in to see this image.]

Cast: Alicia & Elexis Monroe, Nicole Moore & Tara Wild, Lena Ramon, Jewels Jade & Sofey
General
Complete name : Women seeking Women #7.avi
Format : AVI
Format/Info : Audio Video Interleave
File size : 1.20 GiB
Duration : 2h 10mn
Overall bit rate mode : Variable
Overall bit rate : 1 310 Kbps
Writing application : VirtualDubMod 1.5.10.1 (build 2439/release)
Writing library : VirtualDubMod build 2439/release

Video
ID : 0
Format : MPEG-4 Visual
Format settings, BVOP : 1
Format settings, QPel : No
Format settings, GMC : No warppoints
Format settings, Matrix : Default (H.263)
Muxing mode : Packed bitstream
Codec ID : DX50
Codec ID/Hint : DivX 5
Duration : 2h 10mn
Bit rate : 1 195 Kbps
Width : 512 pixels
Height : 384 pixels
Display aspect ratio : 4:3
Frame rate : 29.970 fps
Color space : YUV
Chroma subsampling : 4:2:0
Bit depth : 8 bits
Scan type : Progressive
Compression mode : Lossy
Bits/(Pixel*Frame) : 0.203
Stream size : 1.09 GiB (91%)
Writing library : DivX 5.2.1 (WaffleDay) (UTC 2004-09-08)

Audio
ID : 1
Format : MPEG Audio
Format version : Version 1
Format profile : Layer 3
Mode : Joint stereo
Codec ID : 55
Codec ID/Hint : MP3
Duration : 2h 10mn
Bit rate mode : Variable
Bit rate : 101 Kbps
Nominal bit rate : 128 Kbps
Channel(s) : 2 channels
Sampling rate : 48.0 KHz
Compression mode : Lossy
Stream size : 94.4 MiB (8%)
Alignment : Aligned on interleaves
Interleave, duration : 24 ms (0.72 video frame)
Interleave, preload duratio : 612 ms
Writing library : LAME3.90.
Encoding settings : -m j -V 0 -q 5 -lowpass 15.3 --abr 128

[You must be registered and logged in to see this image.]
Kód:
http://data.hu/get/9866131/Women_seeking_Women_7.001
http://data.hu/get/9866132/Women_seeking_Women_7.002
http://data.hu/get/9866133/Women_seeking_Women_7.003
http://data.hu/get/9866134/Women_seeking_Women_7.004
http://data.hu/get/9866135/Women_seeking_Women_7.005
http://data.hu/get/9866136/Women_seeking_Women_7.006
http://data.hu/get/9866137/Women_seeking_Women_7.007
http://data.hu/get/9866138/Women_seeking_Women_7.crc

[You must be registered and logged in to see this image.]
Kód:
http://data.hu/get/9866139/Women_seeking_Women_7.zip

openload
[You must be registered and logged in to see this image.]
Kód:
https://openload.co/f/oTsB6h4IZpM/Women_seeking_Women_%237.avi.mp4

bitporno
[You must be registered and logged in to see this image.]
Kód:
https://www.bitporno.sx/?v=AfuAKkrDH
avatar
bubus66

Hozzászólások száma : 45
Join date : 2016. Jul. 22.

Vissza az elejére Go down

Vissza az elejére


 
Permissions in this forum:
Nem válaszolhatsz egy témára ebben a fórumban.