datalinkek
Üdvözöllek az oldalon!

Az oldal teljes tartalmának megtekintéséhez regisztrációra van szükség.

Az oldalon minden teljesen ingyenes

Women seeking Women Vol. 006

Go down

Women seeking Women Vol. 006

Témanyitás by bubus66 on Szomb. Júl. 23, 2016 6:22 am

Women seeking Women Vol. 006 XXX.DVDRip

[You must be registered and logged in to see this image.]
[You must be registered and logged in to see this image.]

Cast: Alicia & Elexis Monroe, Nicole Moore & Tara Wild, Lena Ramon, Jewels Jade & Sofey



General
Complete name : Women seeking Women #6.avi
Format : AVI
Format/Info : Audio Video Interleave
File size : 1.24 GiB
Duration : 2h 23mn
Overall bit rate : 1 236 Kbps
Writing application : Nandub v1.0rc2
Writing library : VirtualDub build 22945/release

Video
ID : 0
Format : MPEG-4 Visual
Format profile : Advanced Simple@L5
Format settings, BVOP : 1
Format settings, QPel : No
Format settings, GMC : No warppoints
Format settings, Matrix : Default (H.263)
Muxing mode : Packed bitstream
Codec ID : XVID
Codec ID/Hint : XviD
Duration : 2h 23mn
Bit rate : 1 033 Kbps
Width : 544 pixels
Height : 368 pixels
Display aspect ratio : 3:2
Frame rate : 29.970 (30000/1001) fps
Color space : YUV
Chroma subsampling : 4:2:0
Bit depth : 8 bits
Scan type : Progressive
Compression mode : Lossy
Bits/(Pixel*Frame) : 0.172
Stream size : 1.03 GiB (84%)
Writing library : XviD 1.1.0 (UTC 2005-11-22)

Audio
ID : 1
Format : MPEG Audio
Format version : Version 1
Format profile : Layer 3
Mode : Joint stereo
Mode extension : MS Stereo
Codec ID : 55
Codec ID/Hint : MP3
Duration : 2h 23mn
Bit rate mode : Constant
Bit rate : 192 Kbps
Channel(s) : 2 channels
Sampling rate : 48.0 KHz
Compression mode : Lossy
Stream size : 197 MiB (16%)
Alignment : Aligned on interleaves
Interleave, duration : 33 ms (1.00 video frame)
Writing library : LAME3.97b
Encoding settings : -m j -V 4 -q 2 -lowpass 18.6 -b 192

[You must be registered and logged in to see this image.]
Kód:
http://data.hu/get/9866082/Women_seeking_Women_6.001
http://data.hu/get/9866083/Women_seeking_Women_6.002
http://data.hu/get/9866084/Women_seeking_Women_6.003
http://data.hu/get/9866085/Women_seeking_Women_6.004
http://data.hu/get/9866086/Women_seeking_Women_6.005
http://data.hu/get/9866087/Women_seeking_Women_6.006
http://data.hu/get/9866088/Women_seeking_Women_6.007
http://data.hu/get/9866089/Women_seeking_Women_6.crc

[You must be registered and logged in to see this image.]
Kód:
http://data.hu/get/9866091/Women_seeking_Women_6.zip

openload
[You must be registered and logged in to see this image.]
Kód:
https://openload.co/f/di1Vl-fsk-I/Women_seeking_Women_%236.avi.mp4

bitporno
[You must be registered and logged in to see this image.]
Kód:
https://www.bitporno.sx/?v=dMRe5AwxB
avatar
bubus66

Hozzászólások száma : 45
Join date : 2016. Jul. 22.

Vissza az elejére Go down

Vissza az elejére


 
Permissions in this forum:
Nem válaszolhatsz egy témára ebben a fórumban.