datalinkek
Üdvözöllek az oldalon!

Az oldal teljes tartalmának megtekintéséhez regisztrációra van szükség.

Az oldalon minden teljesen ingyenes

Women seeking Women Vol. 005

Go down

Women seeking Women Vol. 005

Témanyitás by bubus66 on Szomb. Júl. 23, 2016 6:16 am

Women seeking Women Vol. 005 XXX.DVDRip

[You must be registered and logged in to see this image.]
[You must be registered and logged in to see this image.]

Cast: Jewels Jade and Meghan, Holly Holllywood and Kyla, Justine Romee and Lena Ramone
General
Complete name : WomenseekingWomenvol.005.mp4
Format : MPEG-4
Format profile : Base Media / Version 2
Codec ID : mp42 (mp42)
File size : 1.30 GiB
Duration : 2h 18mn
Overall bit rate mode : Variable
Overall bit rate : 1 340 Kbps
Codirector : codirector
Production studio : studio
ContentType : Unknown Type
Encoded date : UTC 2016-07-22 07:08:12
Tagged date : UTC 2016-07-22 07:08:12

Video
ID : 1
Format : AVC
Format/Info : Advanced Video Codec
Format profile : High@L3
Format settings, CABAC : Yes
Format settings, ReFrames : 1 frame
Format settings, GOP : M=3, N=24
Muxing mode : Container profile=Baseline@3.0
Codec ID : avc1
Codec ID/Info : Advanced Video Coding
Duration : 2h 18mn
Source duration : 2h 18mn
Bit rate mode : Variable
Bit rate : 1 191 Kbps
Maximum bit rate : 1 800 Kbps
Width : 640 pixels
Height : 480 pixels
Display aspect ratio : 4:3
Frame rate mode : Constant
Frame rate : 29.970 (30000/1001) fps
Color space : YUV
Chroma subsampling : 4:2:0
Bit depth : 8 bits
Scan type : Progressive
Bits/(Pixel*Frame) : 0.129
Stream size : 1.15 GiB (89%)
Source stream size : 1.15 GiB (89%)
Language : English

Audio
ID : 2
Format : AAC
Format/Info : Advanced Audio Codec
Format profile : LC
Codec ID : 40
Duration : 2h 18mn
Bit rate mode : Constant
Bit rate : 144 Kbps
Channel(s) : 2 channels
Channel positions : Front: L R
Sampling rate : 48.0 KHz
Frame rate : 46.875 fps (1024 spf)
Compression mode : Lossy
Stream size : 141 MiB (11%)
Title : Stereo
Language : English
Default : Yes
Alternate group :

[You must be registered and logged in to see this image.]
Kód:
http://data.hu/get/9866039/WomenseekingWomenvol.005.001
http://data.hu/get/9866040/WomenseekingWomenvol.005.002
http://data.hu/get/9866041/WomenseekingWomenvol.005.003
http://data.hu/get/9866042/WomenseekingWomenvol.005.004
http://data.hu/get/9866043/WomenseekingWomenvol.005.005
http://data.hu/get/9866045/WomenseekingWomenvol.005.006
http://data.hu/get/9866047/WomenseekingWomenvol.005.007
http://data.hu/get/9866048/WomenseekingWomenvol.005.crc

[You must be registered and logged in to see this image.]
Kód:
http://data.hu/get/9866049/WomenseekingWomenvol.005.mp4.zip

openload
[You must be registered and logged in to see this image.]
Kód:
https://openload.co/f/VrdnXwfwXGI/WomenseekingWomenvol.005.mp4

bitporno
[You must be registered and logged in to see this image.]
Kód:
https://www.bitporno.sx/?v=CDbRtQmZ3
avatar
bubus66

Hozzászólások száma : 45
Join date : 2016. Jul. 22.

Vissza az elejére Go down

Vissza az elejére


 
Permissions in this forum:
Nem válaszolhatsz egy témára ebben a fórumban.