datalinkek
Üdvözöllek az oldalon!

Az oldal teljes tartalmának megtekintéséhez regisztrációra van szükség.

Az oldalon minden teljesen ingyenes

Milf Internal 6

Go down

Milf Internal 6

Témanyitás by bubus66 on Pént. Júl. 22, 2016 3:35 pm

Milf Internal 6 XXX.DVDRip-mp4


[You must be registered and logged in to see this image.]
[You must be registered and logged in to see this image.]

Director: Hundies
Actors: Brandi Edwards, Dino Bravo, Ethan Cage, Johnny Sins, Kristine Madison, Kurt Lockwood, Lexi Lamour, Totally Tabitha, Vanessa Videl
General
Complete name               : mi6a.mp4
Format                      : MPEG-4
Format profile              : Base Media
Codec ID                    : isom (isom)
File size                   : 633 MiB
Duration                    : 1h 57mn
Overall bit rate mode       : Variable
Overall bit rate            : 756 Kbps
Encoded date                : UTC 2016-04-20 13:25:11
Tagged date                 : UTC 2016-04-20 13:25:11

Video
ID                          : 1
Format                      : AVC
Format/Info                 : Advanced Video Codec
Format profile              : High@L3.1
Format settings, CABAC      : Yes
Format settings, ReFrames   : 4 frames
Codec ID                    : avc1
Codec ID/Info               : Advanced Video Coding
Duration                    : 1h 57mn
Bit rate                    : 640 Kbps
Maximum bit rate            : 1 285 Kbps
Width                       : 576 pixels
Height                      : 432 pixels
Display aspect ratio        : 4:3
Frame rate mode             : Variable
Frame rate                  : 27.163 fps
Minimum frame rate          : 9.989 fps
Maximum frame rate          : 29.970 fps
Color space                 : YUV
Chroma subsampling          : 4:2:0
Bit depth                   : 8 bits
Scan type                   : Progressive
Bits/(Pixel*Frame)          : 0.095
Stream size                 : 535 MiB (85%)
Writing library             : x264
Encoded date                : UTC 2016-04-17 05:40:04
Tagged date                 : UTC 2016-04-20 13:27:02
Color range                 : Limited
Color primaries             : BT.601 NTSC
Transfer characteristics    : BT.709
Matrix coefficients         : BT.601

Audio
ID                          : 2
Format                      : AAC
Format/Info                 : Advanced Audio Codec
Format profile              : LC
Codec ID                    : 40
Duration                    : 1h 56mn
Source duration             : 1h 57mn
Bit rate mode               : Variable
Bit rate                    : 112 Kbps
Maximum bit rate            : 137 Kbps
Channel(s)                  : 2 channels
Channel positions           : Front: L R
Sampling rate               : 48.0 KHz
Frame rate                  : 46.875 fps (1024 spf)
Compression mode            : Lossy
Stream size                 : 94.0 MiB (15%)
Source stream size          : 94.0 MiB (15%)
Title                       : Stereo
Default                     : Yes
Alternate group             : 1
Encoded date                : UTC 2016-04-17 05:40:04
Tagged date                 : UTC 2016-04-20 13:27:02

[You must be registered and logged in to see this image.]
Kód:
http://data.hu/get/9668661/mi6a.001
http://data.hu/get/9668662/mi6a.002
http://data.hu/get/9668663/mi6a.003
http://data.hu/get/9668664/mi6a.004
http://data.hu/get/9668665/mi6a.crc

[You must be registered and logged in to see this image.]
Kód:
http://data.hu/get/9668667/mi6a.zip

avatar
bubus66

Hozzászólások száma : 45
Join date : 2016. Jul. 22.

Vissza az elejére Go down

Vissza az elejére


 
Permissions in this forum:
Nem válaszolhatsz egy témára ebben a fórumban.