datalinkek
Üdvözöllek az oldalon!

Az oldal teljes tartalmának megtekintéséhez regisztrációra van szükség.

Az oldalon minden teljesen ingyenes

40 plus denn rattig bleibt mann immer

Go down

40 plus denn rattig bleibt mann immer

Témanyitás by bubus66 on Pént. Júl. 22, 2016 3:27 pm

40 plus denn rattig bleibt mann immer XXX.DVDRip-AVI

[You must be registered and logged in to see this image.]
[You must be registered and logged in to see this image.]

Muttis fötzchen will nochmal. 40 plus denn rattig bleibt mann immer
General
Complete name : 40_Plus_Denn_rattig_bleibt_man_immer.avi
Format : AVI
Format/Info : Audio Video Interleave
File size : 700 MiB
Duration : 1h 55mn
Overall bit rate : 848 Kbps
Writing application : Lavf54.63.104

Video
ID : 0
Format : xvid
Codec ID : xvid
Duration : 1h 55mn
Bit rate : 613 Kbps
Width : 640 pixels
Height : 480 pixels
Display aspect ratio : 4:3
Frame rate : 25.000 fps
Bits/(Pixel*Frame) : 0.080
Stream size : 506 MiB (72%)

Audio
ID : 1
Format : AC-3
Format/Info : Audio Coding 3
Mode extension : CM (complete main)
Format settings, Endianness : Big
Codec ID : 2000
Duration : 1h 55mn
Bit rate mode : Constant
Bit rate : 224 Kbps
Channel(s) : 2 channels
Channel positions : Front: L R
Sampling rate : 48.0 KHz
Bit depth : 16 bits
Compression mode : Lossy
Stream size : 185 MiB (26%)
Alignment : Aligned on interleaves
Interleave, duration : 32 ms (0.80 video frame)

[You must be registered and logged in to see this image.]
Kód:
http://data.hu/get/8753169/40_Plus_Denn_rattig_bleibt_man_immer.001
http://data.hu/get/8753170/40_Plus_Denn_rattig_bleibt_man_immer.002
http://data.hu/get/8753171/40_Plus_Denn_rattig_bleibt_man_immer.003
http://data.hu/get/8753172/40_Plus_Denn_rattig_bleibt_man_immer.004
http://data.hu/get/8753173/40_Plus_Denn_rattig_bleibt_man_immer.crc


[You must be registered and logged in to see this image.]
Kód:
http://data.hu/get/8753174/40_Plus_Denn_rattig_bleibt_man_immer.zip
avatar
bubus66

Hozzászólások száma : 45
Join date : 2016. Jul. 22.

Vissza az elejére Go down

Vissza az elejére


 
Permissions in this forum:
Nem válaszolhatsz egy témára ebben a fórumban.